访问手机版

用手机浏览器扫描

游客您好
  • 点击联系客服

    在线时间:7x24

    客服QQ

    3608612109

    电子邮件

    mfsese.com@gmail.com
  • 免费色色APP

    随时随地超爽体验

  • 免费色色APP

    随时随地超爽体验

推荐阅读 更多
up主
Lv.20
第 774 号会员,0活跃度
  • 38191发帖
  • 38191主题
  • 0关注
  • 110粉丝
这个人很懒,什么也没有留下。
最近评论
热门专题
开启左侧

[欧美] [德国] [BD-1080P] 激战柏林.Fucking Berlin.2016.DE.BluRay.1920x 1036p.x2...

[复制链接]
蜡笔小新 发表于 2020-1-13 20:48:39 | 显示全部楼层 |阅读模式 打印 上一主题 下一主题

注册后享用更多功能,让你轻松玩转免费色色

您需要 登录 才可以下载或查看,没有帐号?免费注册

x

187509e0ac15ab67e037e8e1f28f9435.jpg

187509e0ac15ab67e037e8e1f28f9435.jpg


◎片   名 Fucking Berlin
◎译   名 激战柏林
◎年   代 2016
◎国   家 德国
◎类   别 剧情 / 爱情 、 情色
◎语   言 德语
◎上映日 期 2016-10-06(德国
◎字   幕 中英双字/简体字幕/繁体字幕/英文字幕
◎IMDB 评分5.5/10 from 462 users
◎豆瓣 评分5.0/10 from 492 users
◎视频尺 寸1920x1036p
◎片   长 1.40.24
◎导   演  弗洛里安·戈特沙尔克
◎编 剧索尼娅·罗西 / 苏菲·路易斯·鲍尔 / 弗洛里安·戈特沙尔克 / 莱奥妮·克里彭多夫 / 多米尼克·斯泰格曼
◎主   演 思文佳·永 / 马特乌什道普莱亚斯基 / 克里斯托夫·列克托斯基 / 查丽·安·施米茨勒 / 尤金·鲍德尔

◎简  介
  别严谨的德国人了,你们知道这世界上最重口的色情片都是德国人拍的吗?你们不知道,埃里克·卡特曼和他妈肯定知道。
※※※※※※※ 参数信息 ※※※※※※※

General
Unique ID        : 224500904967365070741107850627687280037
[PRiME] (1).mkv
Format         : Matroska
Format version     : Version 4 / Version 2
File size        : 8.71 GiB
Duration       : 1 h 40 min
Overall bit rate     : 12.4 Mb/s
Encoded date       : UTC 2017-05-21 16:06:42
Writing application    : mkvmerge v9.4.2 ('So High') 64bit
Writing library      : libebml v1.3.4 + libmatroska v1.4.5
Attachments      : msyh.ttf / msyhbd.ttf / STKAITI.TTF / p2389656488.jpg
Video
ID         : 1
Format         : AVC
Format/Info      : Advanced Video Codec
Format profile     : [email protected]
Format settings, CABAC   : Yes
Format settings, ReFrames  : 4 frames
Codec ID       : V_MPEG4/ISO/AVC
Duration       : 1 h 40 min
Bit rate       : 10.8 Mb/s
Width        : 1 920 pixels
Height         : 1 036 pixels
Display aspect ratio   : 1.85:1
Frame rate mode      : Constant
Frame rate       : 23.976 (24000/1001) FPS
Color space      : YUV
Chroma subsampling     : 4:2:0
Bit depth        : 8 bits
Scan type        : Progressive
Bits/(Pixel*Frame)     : 0.227
Stream size      : 7.60 GiB (87%)
Writing library      : x264 core 148 r2699+6+41 29a38aa Yuuki [[email protected]:2:0 X86_64][GCC 5.3.0]
Encoding settings    : cabac=1 / ref=4 / deblock=1:-3:-3 / analyse=0x3:0x113 / me=umh / subme=11 / psy=1 / fade_compensate=0.00 / psy_rd=1.00:0.05 / mixed_ref=1 / me_range=32 / chroma_me=1 / trellis=2 / 8x8dct=1 / cqm=0 / deadzone=21,11 / fast_pskip=0 / chroma_qp_offset=-2 / threads=24 / lookahead_threads=4 / sliced_threads=0 / nr=0 / decimate=1 / interlaced=0 / bluray_compat=0 / constrained_intra=0 / fgo=0 / bframes=8 / b_pyramid=2 / b_adapt=2 / b_bias=0 / direct=3 / weightb=1 / open_gop=0 / weightp=2 / keyint=250 / keyint_min=23 / scenecut=40 / intra_refresh=0 / rc_lookahead=40 / rc=crf / mbtree=0 / crf=18.5000 / qcomp=0.60 / qpmin=0:0:0 / qpmax=69:69:69 / qpstep=4 / vbv_maxrate=50000 / vbv_bufsize=40000 / crf_max=0.0 / nal_hrd=none / filler=0 / ip_ratio=1.40 / pb_ratio=1.30 / aq=3:0.90
Language       : German
Default        : Yes
Forced         : No
Audio
ID         : 2
Format         : DTS
Format/Info      : Digital Theater Systems
Mode         : 16
Format settings, Endianness  : Big
Codec ID       : A_DTS
Duration       : 1 h 40 min
Bit rate mode      : Constant
Bit rate       : 1 509 kb/s
Channel(s)       : 6 channels
Channel positions    : Front: L C R, Side: L R, LFE
Sampling rate      : 48.0 kHz
Frame rate       : 93.750 FPS (512 spf)
Bit depth        : 24 bits
Compression mode     : Lossy
Stream size      : 1.06 GiB (12%)
Language       : German
Default        : Yes
Forced         : No
Text #1
ID         : 3
Format         : ASS
Codec ID       : S_TEXT/ASS
Codec ID/Info      : Advanced Sub Station Alpha
Duration       : 1 h 35 min
Bit rate       : 214 b/s
Count of elements    : 862
Compression mode     : Lossless
Stream size      : 150 KiB (0%)
Title        : 中英字幕
Language       : Chinese
Default        : Yes
Forced         : No
Text #2
ID         : 4
Format         : ASS
Codec ID       : S_TEXT/ASS
Codec ID/Info      : Advanced Sub Station Alpha
Duration       : 1 h 35 min
Bit rate       : 123 b/s
Count of elements    : 862
Compression mode     : Lossless
Stream size      : 86.9 KiB (0%)
Title        : 简体字幕
Language       : Chinese
Default        : No
Forced         : No
Text #3
ID         : 5
Format         : ASS
Codec ID       : S_TEXT/ASS
Codec ID/Info      : Advanced Sub Station Alpha
Duration       : 1 h 35 min
Bit rate       : 123 b/s
Count of elements    : 862
Compression mode     : Lossless
Stream size      : 86.9 KiB (0%)
Title        : 繁体字幕
Language       : Chinese
Default        : No
Forced         : No
Text #4
ID         : 6
Format         : ASS
Codec ID       : S_TEXT/ASS
Codec ID/Info      : Advanced Sub Station Alpha
Duration       : 1 h 35 min
Bit rate       : 124 b/s
Count of elements    : 862
Compression mode     : Lossless
Stream size      : 87.7 KiB (0%)
Title        : 英文字幕
Language       : English
Default        : No
Forced         : No

02b03a754b9d54fe3a991bc9e51b66e6.jpg

02b03a754b9d54fe3a991bc9e51b66e6.jpg

93e5d4793e90a70c9518a1287df844e2.torrent

91.57 KB, 下载次数: 0

售价: 109 色币  [记录]  [购买]

93e5d4793e90a70c9518a1287df844e2.torrent

您需要登录后才可以回帖 登录 | 免费注册

本版积分规则

767棋牌
767棋牌
关于《免费色色》:发布地址:bbdaohang.com,本站包含在线视频、图片、云播、BT、下载、凤楼、漫画等成人内容,看情色内容,上《免费色色》就够了,未满18周岁禁止访问,请自行离开!

手机随时看

用手机浏览器扫描二维码

声明:本站包含成人内容,请遵守您当地的法律法规,未满18周岁禁止访问本站,请立即离开,本站禁止发布人兽、儿童等违法色情内容,一经发现禁言处理!

永久域名 MFsese.com © 2001-2020 最新地址 免费色色